<?xml version="1.0" standalone="no"?>
<!DOCTYPE svg PUBLIC "-//W3C//DTD SVG 1.1//EN" "http://www.w3.org/Graphics/SVG/1.1/DTD/svg11.dtd">
<svg xmlns="http://www.w3.org/2000/svg">
<defs >
<font id="Cambay" horiz-adv-x="456" ><font-face
    font-family="Cambay"
    units-per-em="800"
    panose-1="0 0 8 0 0 0 0 0 0 0"
    ascent="800"
    descent="-503"
    alphabetic="0" />
<glyph unicode=" " glyph-name="space" horiz-adv-x="220" />
<glyph unicode="!" glyph-name="exclam" horiz-adv-x="208" d="M166 90H91L83 493H175L166 90ZM108 -57T94 -43T80 -8Q80 13 94 27T129 41Q150 41 164 27T178 -8Q178 -29 164 -43T129 -57Q108 -57 94 -43Z" />
<glyph unicode="&quot;" glyph-name="quotedbl" horiz-adv-x="285" d="M40 514Q37 535 47 550T82 565Q106 565 116 550T124 514L107 375H57L40 514ZM160 514Q157 535 167 550T202 565Q226 565 236 550T244 514L227 375H177L160 514Z" />
<glyph unicode="#" glyph-name="numbersign" horiz-adv-x="521" d="M26 357V285H140V179H27V107H140V-37H215V107H304V-37H380V107H495V179H380V285H495V357H380V494H304V357H215V494H140V357H26ZM304 285V179H215V285H304Z" />
<glyph unicode="$" glyph-name="dollar" horiz-adv-x="381" d="M353 132T327 100T237 56V-47H157V52Q93 58 31 86L58 161Q92 149 127 141T185 133Q227 133 244 142T261 170Q261 183 245 191T192 211Q148 224 118 237T66 277T44 345Q44 379 67 408T157 447V530H237V448Q283
443 334 428L310 354Q248 372 208 372Q164 372 149 364T134 341Q134 325 152 315T211 293Q255 280 283 267T332 230T353 169Q353 132 327 100Z" />
<glyph unicode="%" glyph-name="percent" horiz-adv-x="504" d="M217 402T191 434T114 466Q64 466 37 434T10 352Q10 301 36 269T114 237Q164 237 190 269T217 352Q217 402 191 434ZM134 0L453 466H366L48 0H134ZM76 373T85 387T114 401Q133 401 142 387T152 352Q152
331 143 317T114 303Q95 303 86 317T76 352Q76 373 85 387ZM494 165T468 197T391 229Q341 229 314 197T287 115Q287 64 313 32T391 0Q441 0 467 32T494 115Q494 165 468 197ZM353 136T362 150T391 164Q410 164 419 150T429 115Q429 94 420 80T391 66Q372 66 363
80T353 115Q353 136 362 150Z" />
<glyph unicode="&amp;" glyph-name="ampersand" horiz-adv-x="600" d="M394 67Q344 22 304 2T207 -18Q166 -18 130 -2T72 46T50 120Q50 175 79 215T172 309Q113 386 113 448Q113 508 152 538T251 568Q310 568 346 539T382 450Q382 411 363 379T296 303L393 194L480
288L544 228L453 127L565 0H453L394 67ZM229 485T215 474T201 445Q201 425 210 407T241 362Q295 407 295 446Q295 463 284 474T251 485Q229 485 215 474ZM246 66T272 81T334 133L231 249Q186 214 162 186T138 125Q138 97 157 82T208 66Q246 66 272 81Z" />
<glyph unicode="&apos;" glyph-name="quotesingle" horiz-adv-x="165" d="M40 514Q37 535 47 550T82 565Q106 565 116 550T124 514L107 375H57L40 514Z" />
<glyph unicode="(" glyph-name="parenleft" horiz-adv-x="267" d="M140 143T166 50Q196 -51 237 -122L177 -154Q53 46 53 224Q53 405 176 603L237 570Q196 499 166 398Q140 305 140 222Q140 143 166 50Z" />
<glyph unicode=")" glyph-name="parenright" horiz-adv-x="267" d="M127 305T101 398Q71 499 30 570L91 603Q214 405 214 224Q214 46 90 -154L30 -122Q71 -51 101 50Q127 143 127 222Q127 305 101 398Z" />
<glyph unicode="*" glyph-name="asterisk" horiz-adv-x="472" d="M205 434L109 513L60 425L177 383L62 339L111 253L205 331L185 209H284L268 331L361 252L412 338L296 380L410 425L359 513L267 434L284 557H185L205 434Z" />
<glyph unicode="+" glyph-name="plus" horiz-adv-x="464" d="M191 412V269H50V185H191V41H273V185H414V269H273V412H191Z" />
<glyph unicode="," glyph-name="comma" horiz-adv-x="213" d="M74 -9Q56 -4 45 11T33 46Q33 71 49 87T90 103Q116 103 131 84T147 30Q147 -8 124 -41T61 -114L29 -93L74 -9Z" />
<glyph unicode="-" glyph-name="hyphen" horiz-adv-x="326" d="M276 180H30V247H276V180Z" />
<glyph unicode="." glyph-name="period" horiz-adv-x="184" d="M69 -11T52 6T35 46Q35 69 52 86T92 103Q115 103 132 86T149 46Q149 23 132 6T92 -11Q69 -11 52 6Z" />
<glyph unicode="/" glyph-name="slash" horiz-adv-x="323" d="M87 -55L293 570H211L5 -55H87Z" />
<glyph unicode="0" glyph-name="zero" horiz-adv-x="422" d="M308 469T355 403T402 231Q402 127 354 60T212 -8Q116 -8 68 59T20 231Q20 335 68 402T212 469Q308 469 355 403ZM264 68T288 113T312 231Q312 303 288 347T211 391Q157 391 134 348T110 231Q110 158
134 113T211 68Q264 68 288 113Z" />
<glyph unicode="1" glyph-name="one" horiz-adv-x="296" d="M286 70V0H29V70H115V390L39 359L10 425L107 466H204V70H286Z" />
<glyph unicode="2" glyph-name="two" horiz-adv-x="367" d="M62 448T97 461T181 475Q247 475 291 437T336 332Q336 279 312 240T231 143L160 77H341V0H31V71L67 104Q153 179 186 216Q226 262 237 284T249 332Q249 359 230 374T172 390Q142 390 118 381T76 361T52
348L20 425Q62 448 97 461Z" />
<glyph unicode="3" glyph-name="three" horiz-adv-x="387" d="M251 476T291 442T332 347Q332 310 313 281T264 236Q305 223 328 197T352 124Q352 59 307 25T188 -10Q144 -10 107 0T28 29L56 106Q100 87 126 79T181 70Q267 70 267 127Q267 164 237 179T139 195H131V271Q197
271 221 290T246 342Q246 370 227 382T181 394Q138 394 64 361L33 438Q114 476 181 476Q251 476 291 442Z" />
<glyph unicode="4" glyph-name="four" horiz-adv-x="401" d="M391 175V101H317V-1H231V101H15V159L218 466H317V175H391ZM121 175H231V348L121 175Z" />
<glyph unicode="5" glyph-name="five" horiz-adv-x="357" d="M122 228T92 224T55 218L40 228V466H320V394H120V303Q141 305 169 305Q251 305 294 262T337 147Q337 65 287 28T160 -9Q127 -9 89 -2T20 16L42 92Q77 81 100 76T150 70Q205 70 229 89T254 150Q254 228
145 228Q122 228 92 224Z" />
<glyph unicode="6" glyph-name="six" horiz-adv-x="385" d="M271 287T315 249T360 142Q360 73 319 32T200 -10Q110 -10 66 49T22 211Q22 340 94 407T309 476L317 396Q214 399 166 364T109 265Q150 287 205 287Q271 287 315 249ZM236 67T257 86T278 141Q278 174
259 192T201 210Q149 210 103 177Q107 122 133 95T199 67Q236 67 257 86Z" />
<glyph unicode="7" glyph-name="seven" horiz-adv-x="341" d="M156 0H71L228 391H20V466H321V407L156 0Z" />
<glyph unicode="8" glyph-name="eight" horiz-adv-x="380" d="M254 475T292 443T330 360Q330 321 314 298T271 252Q313 228 333 199T354 130Q354 68 312 29T192 -10Q116 -10 74 28T32 124Q32 167 51 196T110 251Q83 273 66 297T49 360Q49 408 87 441T190 475Q254
475 292 443ZM164 402T146 389T127 354Q127 330 143 312T190 276Q219 292 235 309T252 353Q252 376 234 389T190 402Q164 402 146 389ZM233 62T255 82T278 133Q278 167 254 185T190 218Q153 208 130 185T106 130Q106 102 127 82T192 62Q233 62 255 82Z" />
<glyph unicode="9" glyph-name="nine" horiz-adv-x="388" d="M273 476T316 417T360 255Q360 163 332 104T238 17T60 -10L55 66Q66 65 86 65Q183 65 225 96T277 189Q234 169 177 169Q135 169 100 188T43 242T22 324Q22 393 63 434T182 476Q273 476 316 417ZM105
290T124 268T181 246Q237 246 279 271Q278 336 252 367T183 398Q146 398 126 380T105 325Q105 290 124 268Z" />
<glyph unicode=":" glyph-name="colon" horiz-adv-x="236" d="M95 217T80 232T64 271Q64 294 79 309T118 325Q141 325 156 310T172 271Q172 248 157 233T118 217Q95 217 80 232ZM95 -11T80 4T64 43Q64 66 79 81T118 97Q141 97 156 82T172 43Q172 20 157 5T118
-11Q95 -11 80 4Z" />
<glyph unicode=";" glyph-name="semicolon" horiz-adv-x="236" d="M95 217T80 232T64 271Q64 294 79 309T118 325Q141 325 156 310T172 271Q172 248 157 233T118 217Q95 217 80 232ZM102 -9Q84 -4 74 10T64 43Q64 68 79 82T118 97Q143 97 157 81T172 35Q172 -5
150 -39T89 -114L57 -93L102 -9Z" />
<glyph unicode="&lt;" glyph-name="less" horiz-adv-x="428" d="M380 42V126L132 240L380 355V439L40 272V208L380 42Z" />
<glyph unicode="=" glyph-name="equal" horiz-adv-x="534" d="M464 265V342H70V265H464ZM464 107V184H70V107H464Z" />
<glyph unicode="&gt;" glyph-name="greater" horiz-adv-x="428" d="M48 355L296 240L48 126V42L388 208V272L48 439V355Z" />
<glyph unicode="?" glyph-name="question" horiz-adv-x="432" d="M402 427T353 464T230 502Q189 502 151 493T70 463L100 383Q164 418 221 418Q268 418 289 400T311 354Q311 326 297 307T251 261Q223 237 205 217T175 166T162 92V76H254V92Q254 135 271 160T325
217Q351 239 366 255T391 297T402 357Q402 427 353 464ZM186 -78T170 -62T154 -23Q154 0 170 16T209 32Q232 32 248 16T264 -23Q264 -46 248 -62T209 -78Q186 -78 170 -62Z" />
<glyph unicode="@" glyph-name="at" horiz-adv-x="786" d="M497 361Q446 381 401 381Q313 381 259 327T205 178Q205 120 230 78T295 13T381 -10Q449 -10 496 43Q522 -10 587 -10Q638 -10 674 20T728 98T746 201Q746 364 661 453T404 543Q309 543 226 499T91 374T40
188Q40 79 85 0T206 -120T367 -161Q444 -161 511 -140V-62Q454 -82 387 -82Q313 -82 255 -50T163 45T129 192Q129 267 165 329T266 427T408 463Q531 463 596 397T662 200Q662 137 644 99T597 60Q555 60 555 132V377H503L497 361ZM295 245T322 278T399 312Q440 312
473 297V107Q441 66 387 66Q343 66 319 98T295 185Q295 245 322 278Z" />
<glyph unicode="A" glyph-name="A" horiz-adv-x="535" d="M13 0H109L164 145H367L423 0H522L315 550H220L13 0ZM195 233L265 439L335 233H195Z" />
<glyph unicode="B" glyph-name="B" horiz-adv-x="515" d="M63 0H237Q375 0 429 44T484 150Q484 196 454 235T368 285Q440 329 440 407Q440 461 399 505T250 550H63V0ZM295 465T320 447T345 394Q345 358 319 341T232 324H161V465H232Q295 465 320 447ZM310 242T348
222T387 161Q387 118 348 102T225 86H161V241L225 242Q310 242 348 222Z" />
<glyph unicode="C" glyph-name="C" horiz-adv-x="542" d="M245 555T179 519T76 419T40 275Q40 197 74 132T174 29T328 -9Q370 -9 409 0T496 28L510 34L478 113L464 107Q394 81 345 81Q249 81 195 134T140 276Q140 329 163 373T229 442T331 468Q361 468 388 465T455
446L470 441L503 518L487 524Q413 555 333 555Q245 555 179 519Z" />
<glyph unicode="D" glyph-name="D" horiz-adv-x="583" d="M63 0H200Q249 0 280 2T344 11Q450 41 496 117T543 292Q543 357 516 415T424 511T249 550H63V0ZM345 462T394 416T443 279Q443 244 436 218T419 176Q391 121 340 105T225 89H161V462H251Q345 462 394 416Z" />
<glyph unicode="E" glyph-name="E" horiz-adv-x="467" d="M424 0V89H161V235H394V324H161V462H424V550H63V0H424Z" />
<glyph unicode="F" glyph-name="F" horiz-adv-x="450" d="M419 462V550H63V0H161V209H388V299H161V462H419Z" />
<glyph unicode="G" glyph-name="G" horiz-adv-x="578" d="M293 307V220H437V103Q417 92 397 87T344 82Q285 82 239 107T166 178T139 279Q139 335 166 377T237 442T331 465Q369 465 405 455T470 429L484 423L525 498L511 506Q426 555 328 555Q239 555 174 516T74
413T40 275Q40 204 72 139T169 33T328 -9Q460 -6 533 57V307H293Z" />
<glyph unicode="H" glyph-name="H" horiz-adv-x="587" d="M427 319H161V550H63V0H161V230H427V0H524V550H427V319Z" />
<glyph unicode="I" glyph-name="I" horiz-adv-x="224" d="M63 0H161V550H63V0Z" />
<glyph unicode="J" glyph-name="J" horiz-adv-x="364" d="M218 199Q218 152 196 118T99 83Q71 83 48 89L31 93L16 8L29 3Q68 -7 110 -7Q232 -7 273 52T315 199V550H218V199Z" />
<glyph unicode="K" glyph-name="K" horiz-adv-x="522" d="M63 550V0H161V550H63ZM398 0H514L281 284L498 550H388L169 284L398 0Z" />
<glyph unicode="L" glyph-name="L" horiz-adv-x="443" d="M63 0H423V89H161V550H63V0Z" />
<glyph unicode="M" glyph-name="M" horiz-adv-x="682" d="M63 0H161V415L299 141H383L522 415V0H619V550H495L343 249L194 550H63V0Z" />
<glyph unicode="N" glyph-name="N" horiz-adv-x="608" d="M63 0H161V409L426 0H545V550H446V142L180 550H63V0Z" />
<glyph unicode="O" glyph-name="O" horiz-adv-x="623" d="M236 557T174 522T76 422T40 275Q40 186 78 122T177 26T309 -7Q387 -7 449 29T547 131T583 280Q583 363 547 426T450 523T312 557Q236 557 174 522ZM351 466T391 446T457 383T483 275Q483 211 459 168T397
105T315 85Q266 85 226 109T163 177T140 281Q140 344 164 385T226 446T308 466Q351 466 391 446Z" />
<glyph unicode="P" glyph-name="P" horiz-adv-x="494" d="M63 0H161V215Q168 214 181 213T205 212Q321 213 395 248T469 388Q469 550 243 550H63V0ZM233 462Q297 462 333 447T370 386Q370 334 328 318T209 301L186 302Q170 304 161 304V462H233Z" />
<glyph unicode="Q" glyph-name="Q" horiz-adv-x="622" d="M526 99Q583 173 583 280Q583 363 547 426T450 523T312 557Q236 557 174 522T76 422T40 275Q40 186 78 122T177 26T309 -7Q400 -7 467 42L545 -29L602 29L526 99ZM351 466T391 446T457 383T483 275Q483
215 457 165L349 268L290 206L398 105Q356 85 315 85Q266 85 226 109T163 177T140 281Q140 344 164 385T226 446T308 466Q351 466 391 446Z" />
<glyph unicode="R" glyph-name="R" horiz-adv-x="509" d="M63 0H161V215Q191 213 205 213Q233 213 248 214L374 0H485L347 230Q469 271 469 388Q469 550 243 550H63V0ZM233 462Q297 462 333 447T370 386Q370 334 328 318T209 301Q186 301 161 304V462H233Z" />
<glyph unicode="S" glyph-name="S" horiz-adv-x="499" d="M306 463T338 456T409 433L441 522L430 526Q395 538 358 546T268 555Q206 555 159 535T87 480T62 400Q62 349 88 317T151 267T245 232Q305 214 332 199T358 153Q358 122 325 104T238 85Q179 85 88 119L73
125L40 36L53 30Q105 10 144 1T230 -9Q310 -9 361 14T436 74T459 153Q459 204 432 237T368 287T272 322Q215 340 189 355T162 396Q162 427 191 445T271 463Q306 463 338 456Z" />
<glyph unicode="T" glyph-name="T" horiz-adv-x="476" d="M9 462H189V0H287V462H467V550H9V462Z" />
<glyph unicode="U" glyph-name="U" horiz-adv-x="562" d="M380 -9T429 26T492 105T506 199V550H408V204Q408 178 405 157Q395 121 363 102T280 82Q231 82 199 101T158 157Q153 180 153 204V550H56V199Q56 149 69 105T132 26T280 -9Q380 -9 429 26Z" />
<glyph unicode="V" glyph-name="V" horiz-adv-x="530" d="M212 0H329L519 550H414L275 105L122 550H11L212 0Z" />
<glyph unicode="W" glyph-name="W" horiz-adv-x="830" d="M178 0H279L410 423L523 0H625L821 550H716L578 128L470 550H359L226 128L116 550H11L178 0Z" />
<glyph unicode="X" glyph-name="X" horiz-adv-x="534" d="M142 550H31L211 287L16 0H128L267 205L406 0H518L323 287L503 550H390L267 368L142 550Z" />
<glyph unicode="Y" glyph-name="Y" horiz-adv-x="509" d="M201 249V0H299V249L505 550H395L255 337L116 550H7L201 249Z" />
<glyph unicode="Z" glyph-name="Z" horiz-adv-x="486" d="M48 462H315L29 61V0H457V89H161L455 491V550H48V462Z" />
<glyph unicode="[" glyph-name="bracketleft" horiz-adv-x="294" d="M53 611H241V536H134V-79H241V-154H53V611Z" />
<glyph unicode="\" glyph-name="backslash" horiz-adv-x="322" d="M234 -55H317L112 570H30L234 -55Z" />
<glyph unicode="]" glyph-name="bracketright" horiz-adv-x="294" d="M160 -79V536H53V611H241V-154H53V-79H160Z" />
<glyph unicode="^" glyph-name="asciicircum" horiz-adv-x="430" d="M99 362L215 479L331 362L390 418L215 598L40 418L99 362Z" />
<glyph unicode="_" glyph-name="underscore" horiz-adv-x="452" d="M392 -83V-25H60V-83H392Z" />
<glyph unicode="`" glyph-name="grave" horiz-adv-x="244" d="M188 418L239 477L70 634L5 560L188 418Z" />
<glyph unicode="a" glyph-name="a" horiz-adv-x="408" d="M140 390T62 364L77 298Q130 318 175 318Q228 318 246 300T264 232L189 228Q112 224 71 193T29 105Q29 55 66 23T165 -9Q232 -9 277 27L288 0H364V236Q364 310 326 350T190 390Q140 390 62 364ZM263 82T250
76T223 66T189 63Q159 63 142 76T125 112Q125 158 200 162L268 167V85Q263 82 250 76Z" />
<glyph unicode="b" glyph-name="b" horiz-adv-x="457" d="M53 0H121L129 21Q180 -9 231 -9Q324 -9 375 44T427 191Q427 261 399 305T329 370T240 390Q185 390 149 374V550H53V0ZM329 315T329 186Q329 123 298 95T215 66Q177 66 149 85V302Q179 315 218 315Q329
315 329 186Z" />
<glyph unicode="c" glyph-name="c" horiz-adv-x="396" d="M128 247T157 281T244 315Q271 315 291 310T348 292L375 355Q339 372 307 381T228 390Q137 390 83 337T29 190Q29 100 83 45T228 -10Q276 -10 310 0T375 27L348 89Q312 77 292 72T244 66Q190 66 159 100T128
190Q128 247 157 281Z" />
<glyph unicode="d" glyph-name="d" horiz-adv-x="457" d="M308 374Q272 390 217 390Q174 390 131 370T59 305T29 191Q29 99 81 45T225 -9Q277 -9 328 21L335 0H404V550H308V374ZM278 315T308 302V85Q279 66 242 66Q190 66 159 94T128 186Q128 315 239 315Q278
315 308 302Z" />
<glyph unicode="e" glyph-name="e" horiz-adv-x="416" d="M160 390T120 366T54 296T29 190Q29 100 81 45T232 -10Q303 -10 368 13L351 78Q303 66 245 66Q190 66 160 85T126 153H387V190Q387 283 341 336T207 390Q160 390 120 366ZM246 315T269 291T292 220H128Q130
265 154 290T209 315Q246 315 269 291Z" />
<glyph unicode="f" glyph-name="f" horiz-adv-x="316" d="M16 384V309H80V0H175V309H318V384H175V417Q175 446 197 462T259 478Q289 478 318 470L334 465L349 534L335 539Q283 554 237 554Q145 554 113 509T80 414V384H16Z" />
<glyph unicode="g" glyph-name="g" horiz-adv-x="455" d="M309 -39T300 -69T264 -116T186 -133Q146 -133 90 -113L74 -108L48 -178L63 -184Q127 -209 196 -209Q308 -209 356 -150T404 -9V384H337L328 359Q272 390 212 390Q170 390 129 371T58 308T29 191Q29 99
81 45T225 -9Q249 -9 267 -4T309 11V9Q309 -39 300 -69ZM276 314T308 300V85Q279 66 242 66Q190 66 159 94T128 186Q128 314 239 314Q276 314 308 300Z" />
<glyph unicode="h" glyph-name="h" horiz-adv-x="449" d="M281 309T295 288T309 231V0H405V218Q405 291 378 340T265 389Q209 389 149 364V550H53V0H149V288Q203 309 240 309Q281 309 295 288Z" />
<glyph unicode="i" glyph-name="i" horiz-adv-x="194" d="M49 0H145V384H49V0ZM72 449T54 467T36 510Q36 536 54 553T97 571Q123 571 140 554T158 510Q158 485 141 467T97 449Q72 449 54 467Z" />
<glyph unicode="j" glyph-name="j" horiz-adv-x="201" d="M59 3Q59 -43 55 -66T36 -105T-10 -137L-24 -145L9 -211L22 -207Q100 -179 126 -134T153 -29V384H59V3ZM81 449T63 467T45 510Q45 536 63 553T106 571Q132 571 149 554T167 510Q167 485 150 467T106 449Q81
449 63 467Z" />
<glyph unicode="k" glyph-name="k" horiz-adv-x="435" d="M53 550V0H149V550H53ZM159 211L311 0H427L272 211L420 389H304L159 211Z" />
<glyph unicode="l" glyph-name="l" horiz-adv-x="244" d="M166 66T157 81T147 127V550H53V99Q53 -9 151 -9Q196 -9 237 10V73Q211 66 191 66Q166 66 157 81Z" />
<glyph unicode="m" glyph-name="m" horiz-adv-x="668" d="M47 384V0H142V287Q175 299 193 303T226 308Q261 308 274 284T288 230V0H384V214Q384 250 377 284Q408 297 428 302T466 308Q501 308 514 284T527 230V0H622V218Q622 291 598 340T491 389Q429 389 351
350Q317 389 252 389Q223 389 197 382T152 366T127 356L115 384H47Z" />
<glyph unicode="n" glyph-name="n" horiz-adv-x="445" d="M47 384V0H142V287Q200 308 235 308Q274 308 289 284T304 230V0H399V218Q399 263 391 299T352 362T260 389Q195 389 127 356L115 384H47Z" />
<glyph unicode="o" glyph-name="o" horiz-adv-x="455" d="M286 -9T331 16T400 87T425 191Q425 282 372 336T228 390Q138 390 84 337T30 190Q30 132 54 87T123 17T227 -9Q286 -9 331 16ZM269 315T297 283T326 190Q326 131 299 99T227 67Q185 67 157 99T129 190Q129
249 157 282T227 315Q269 315 297 283Z" />
<glyph unicode="p" glyph-name="p" d="M51 384V-206H147V11Q170 1 188 -4T230 -9Q323 -9 374 44T426 191Q426 263 398 307T327 371T243 390Q185 390 129 359L118 384H51ZM328 314T328 186Q328 123 297 95T214 66Q177 66 148 85V300Q180 314 217 314Q328 314 328 186Z" />
<glyph unicode="q" glyph-name="q" horiz-adv-x="457" d="M273 390T213 390Q171 390 130 371T59 308T30 191Q30 99 82 45T226 -9Q250 -9 268 -4T310 11V-206H406V384H338L329 359Q273 390 213 390ZM277 314T309 300V85Q280 66 243 66Q191 66 160 94T129 186Q129
314 240 314Q277 314 309 300Z" />
<glyph unicode="r" glyph-name="r" horiz-adv-x="319" d="M47 384V0H142V296Q172 307 205 307Q253 307 287 287L291 288L310 375Q277 390 240 390Q180 390 127 356L115 384H47Z" />
<glyph unicode="s" glyph-name="s" horiz-adv-x="381" d="M106 -9T180 -9Q276 -9 314 27T353 109Q353 146 333 170T284 207T211 233Q171 245 153 255T134 281Q134 296 149 304T208 312Q248 312 310 294L334 368Q309 376 274 383T207 390Q110 390 77 358T44 285Q44
244 66 218T118 178T192 151Q229 139 245 131T261 110Q261 91 244 82T185 73Q162 73 127 81T58 101L31 26Q106 -9 180 -9Z" />
<glyph unicode="t" glyph-name="t" horiz-adv-x="332" d="M261 69T232 69Q169 69 169 125V309H302V384H169V494H73V384H9V309H73V123Q73 61 100 26T211 -9Q235 -9 259 -3T319 13L306 81Q261 69 232 69Z" />
<glyph unicode="u" glyph-name="u" horiz-adv-x="439" d="M390 -1V384H296V96Q256 73 212 73Q172 73 157 97T142 152V384H47V165Q47 92 73 42T187 -9Q221 -9 247 0T312 27L324 -1H390Z" />
<glyph unicode="v" glyph-name="v" horiz-adv-x="415" d="M299 384L209 101L118 384H11L159 0H256L399 384H299Z" />
<glyph unicode="w" glyph-name="w" horiz-adv-x="662" d="M197 105L118 384H16L153 0H245L332 272L417 0H508L646 384H544L465 105L384 384H279L197 105Z" />
<glyph unicode="x" glyph-name="x" horiz-adv-x="413" d="M143 189L18 0H127L206 123L284 0H401L264 189L398 384H286L206 251L121 384H11L143 189Z" />
<glyph unicode="y" glyph-name="y" horiz-adv-x="435" d="M172 -3L85 -206H192L427 384H327L224 89L109 384H0L172 -3Z" />
<glyph unicode="z" glyph-name="z" horiz-adv-x="372" d="M31 300H210L31 49V0H345V81H158L338 333V384H31V300Z" />
<glyph unicode="{" glyph-name="braceleft" horiz-adv-x="313" d="M70 261T94 284T119 347V424Q119 506 164 549T278 601L298 522Q260 513 241 504T209 472T197 401V335Q197 263 125 214Q197 165 197 93V27Q197 -20 209 -43T240 -76T298 -94L278 -173Q210 -164
165 -121T119 4V81Q119 121 95 144T25 173V255Q70 261 94 284Z" />
<glyph unicode="|" glyph-name="bar" horiz-adv-x="300" d="M190 -189H110V632H190V-189Z" />
<glyph unicode="}" glyph-name="braceright" horiz-adv-x="313" d="M243 167T219 144T194 81V4Q194 -78 149 -121T35 -173L15 -94Q53 -85 72 -76T104 -44T116 27V93Q116 165 188 214Q116 263 116 335V401Q116 448 104 471T73 504T15 522L35 601Q103 592 148 549T194
424V347Q194 307 218 284T288 255V173Q243 167 219 144Z" />
<glyph unicode="~" glyph-name="asciitilde" horiz-adv-x="413" d="M106 551T79 525T45 460L118 437Q127 457 134 465T157 473Q168 473 191 459Q211 448 228 442T263 435Q308 435 336 462T368 525L296 549Q289 531 282 523T258 514Q248 514 234 520T217 528Q171
551 143 551Q106 551 79 525Z" />
<glyph unicode="&#xa0;" glyph-name="uni00A0" horiz-adv-x="220" />
<glyph unicode="&#xa1;" glyph-name="exclamdown" horiz-adv-x="208" d="M100 483T114 469T128 434Q128 413 114 399T79 385Q58 385 44 399T30 434Q30 455 44 469T79 483Q100 483 114 469ZM116 336L125 -67H33L41 336H116Z" />
<glyph unicode="&#xa2;" glyph-name="cent" horiz-adv-x="386" d="M306 56T257 51V-47H177V56Q107 70 68 119T29 245Q29 324 69 374T177 437V530H257V438Q288 435 312 427T365 405L338 342Q302 354 282 359T234 365Q123 365 123 245Q123 190 151 158T234 126Q261
126 281 131T338 149L365 87Q306 56 257 51Z" />
<glyph unicode="&#xa3;" glyph-name="sterling" horiz-adv-x="441" d="M400 0V75H216V189H378V265H216V294Q216 346 234 369T303 393Q322 393 343 389T370 383L401 461Q353 477 307 477Q209 477 168 425T127 276V265H59V189H127V75H50V0H400Z" />
<glyph unicode="&#xa4;" glyph-name="currency" horiz-adv-x="600" d="M267 366T236 366Q208 366 169 351L104 420L33 349L104 285Q87 253 87 218Q87 202 91 184T104 150L33 86L105 15L168 85Q196 69 236 69Q271 69 303 86L368 15L439 87L369 150Q376 165 380
183T385 218Q385 247 369 284L439 349L368 420L304 350Q267 366 236 366ZM261 281T279 263T298 218Q298 191 280 173T236 155Q210 155 192 173T174 218Q174 245 192 263T236 281Q261 281 279 263Z" />
<glyph unicode="&#xa5;" glyph-name="yen" horiz-adv-x="469" d="M174 253H79V183H190V142H79V72H190V0H272V72H390V142H272V183H390V253H291L429 466H332L234 297L139 466H40L174 253Z" />
<glyph unicode="&#xa6;" glyph-name="brokenbar" horiz-adv-x="300" d="M190 275V632H110V275H190ZM190 -188V169H110V-188H190Z" />
<glyph unicode="&#xa7;" glyph-name="section" horiz-adv-x="422" d="M372 161T372 109Q372 64 334 28T199 -9Q125 -9 50 26L77 101Q111 89 146 81T204 73Q246 73 263 82T280 110Q280 124 261 134T201 157L172 167Q120 186 92 211T63 285Q63 304 72 325T104 362Q63
393 63 445Q63 485 96 517T226 550Q257 550 292 543T353 528L329 454Q299 463 276 468T227 473Q183 473 168 465T153 441Q153 425 172 414T230 390L255 381Q295 366 317 355T356 323T372 269Q372 249 361 229T327 191Q372 161 372 109ZM153 271T172 258T227 233L247
227Q280 244 280 270Q280 284 261 294T201 317L179 325Q153 313 153 291Q153 271 172 258Z" />
<glyph unicode="&#xa8;" glyph-name="dieresis" horiz-adv-x="264" d="M33 445T19 459T4 495Q4 515 18 529T54 544Q74 544 88 530T103 495Q103 474 89 460T54 445Q33 445 19 459ZM190 445T176 459T161 495Q161 515 175 529T211 544Q231 544 245 530T260 495Q260
474 246 460T211 445Q190 445 176 459Z" />
<glyph unicode="&#xa9;" glyph-name="copyright" horiz-adv-x="679" d="M55 152T91 88T192 -13T340 -49Q422 -49 486 -13T587 88T624 234Q624 317 588 382T487 483T340 519Q257 519 192 483T91 382T55 234Q55 152 91 88ZM123 301T150 350T227 426T340 454Q403
454 453 427T530 350T558 237Q558 138 500 79T340 19Q276 19 227 46T151 122T123 237Q123 301 150 350ZM265 282T287 307T354 333Q371 333 386 329T415 321T435 314L457 363Q430 376 404 383T340 391Q271 391 231 350T190 236Q190 164 230 123T340 81Q379 81 406
88T457 110L435 160Q410 151 393 146T354 141Q311 141 288 166T265 236Q265 282 287 307Z" />
<glyph unicode="&#xaa;" glyph-name="ordfeminine" horiz-adv-x="266" d="M109 554T84 548T42 535L54 495L74 500Q106 509 120 509Q153 509 164 498T175 455L130 452Q30 444 30 375Q30 344 53 323T113 302Q133 302 148 307T182 324L189 308H236V456Q236 504 214
529T131 554Q109 554 84 548ZM167 354T158 351T130 348Q112 348 101 356T89 378Q89 408 136 410L177 414V363Q167 354 158 351Z" />
<glyph unicode="&#xab;" glyph-name="guillemotleft" horiz-adv-x="405" d="M142 80H231L113 241L231 404H142L29 241L142 80ZM296 80H385L267 241L385 404H296L183 241L296 80Z" />
<glyph unicode="&#xac;" glyph-name="logicalnot" horiz-adv-x="485" d="M356 56V169H45V248H440V56H356Z" />
<glyph unicode="&#xad;" glyph-name="softhyphen" horiz-adv-x="306" d="M276 180H30V247H276V180Z" />
<glyph unicode="&#xae;" glyph-name="registered" horiz-adv-x="600" d="M451 449T434 490T388 559Q360 585 320 600T236 615Q192 615 151 600T82 558Q54 530 37 490T20 405Q20 360 37 320T82 252Q109 225 150 210T236 194Q279 194 320 209T389 252Q417 279 434
319T451 405Q451 449 434 490ZM397 330T353 288T236 245Q163 245 119 287T75 405Q75 477 120 522Q163 563 236 563Q309 563 352 522Q397 477 397 405Q397 330 353 288ZM322 480T302 498T248 516H153V300H199V374H236L273 300H324L279 383Q302 394 312 409T322 448Q322
480 302 498ZM279 428T266 422T231 415H199V475H241Q279 475 279 447Q279 428 266 422Z" />
<glyph unicode="&#xaf;" glyph-name="overscore" horiz-adv-x="262" d="M5 447H257V525H5V447Z" />
<glyph unicode="&#xb0;" glyph-name="degree" horiz-adv-x="262" d="M79 268T45 300T10 387Q10 441 44 474T131 508Q183 508 217 475T252 387Q252 333 218 301T131 268Q79 268 45 300ZM78 364T93 349T131 334Q154 334 170 349T186 387Q186 411 170 427T131 443Q108
443 93 427T78 387Q78 364 93 349Z" />
<glyph unicode="&#xb1;" glyph-name="plusminus" horiz-adv-x="444" d="M181 445V315H50V237H181V111H263V237H394V315H263V445H181ZM394 0V76H50V0H394Z" />
<glyph unicode="&#xb2;" glyph-name="twosuperior" horiz-adv-x="266" d="M71 513T87 519T122 525Q147 525 158 514T169 480Q169 444 93 373Q82 361 35 317V276H246V338H147Q196 387 217 422T239 491Q239 537 209 565T133 593Q81 593 30 564L52 503Q71 513 87 519Z" />
<glyph unicode="&#xb3;" glyph-name="threesuperior" horiz-adv-x="272" d="M122 404Q151 404 165 397T179 372Q179 340 135 340Q115 340 93 345T56 356L35 293Q52 284 82 278T136 272Q188 272 220 295T252 363Q252 387 237 406T203 435Q220 448 231 466T242 504Q242
549 214 572T137 596Q112 596 89 589T40 568L64 507Q106 528 138 528Q172 528 172 501Q172 466 120 466H97V404H122Z" />
<glyph unicode="&#xb4;" glyph-name="acute" horiz-adv-x="244" d="M56 418L239 560L174 634L5 477L56 418Z" />
<glyph unicode="&#xb5;" glyph-name="uni00B5" horiz-adv-x="444" d="M329 -1L317 27Q288 10 263 1T209 -9Q174 -9 144 8V-174H54V384H147V182Q147 129 161 102T217 74Q257 74 301 99V384H395V-1H329Z" />
<glyph unicode="&#xb6;" glyph-name="paragraph" horiz-adv-x="519" d="M24 586T24 411Q24 337 73 293T203 246L204 0H299V508H362V0H456V586H231Q24 586 24 411Z" />
<glyph unicode="&#xb7;" glyph-name="middot" horiz-adv-x="229" d="M90 225T73 242T55 285Q55 310 72 327T115 344Q140 344 157 327T174 285Q174 260 157 243T115 225Q90 225 73 242Z" />
<glyph unicode="&#xb8;" glyph-name="cedilla" horiz-adv-x="215" d="M103 -141T78 -136L24 -121L5 -187L20 -191Q67 -208 114 -208Q161 -208 185 -184T210 -124Q210 -91 188 -71T133 -42L149 26H76L44 -86L99 -102Q123 -109 130 -115T137 -129Q137 -134 132 -137T115
-141Q103 -141 78 -136Z" />
<glyph unicode="&#xb9;" glyph-name="onesuperior" horiz-adv-x="193" d="M15 553L40 497L96 513V275H168V586H116L15 553Z" />
<glyph unicode="&#xba;" glyph-name="ordmasculine" horiz-adv-x="297" d="M202 302T234 337T267 427Q267 485 236 520T149 555Q94 555 62 520T30 427Q30 371 61 337T148 302Q202 302 234 337ZM175 509T191 487T207 427Q207 391 191 370T148 349Q123 349 106 370T89
427Q89 465 105 487T148 509Q175 509 191 487Z" />
<glyph unicode="&#xbb;" glyph-name="guillemotright" horiz-adv-x="405" d="M138 241L20 80H109L222 241L109 404H20L138 241ZM292 241L174 80H263L376 241L263 404H174L292 241Z" />
<glyph unicode="&#xbc;" glyph-name="onequarter" horiz-adv-x="660" d="M25 517L50 461L106 477V239H178V550H126L25 517ZM179 0L526 550H442L92 0H179ZM358 117V63H504V0H571V63H620V123H571V309H491L358 117ZM504 213V123H441L504 213Z" />
<glyph unicode="&#xbd;" glyph-name="onehalf" horiz-adv-x="671" d="M25 517L50 461L106 477V239H178V550H126L25 517ZM179 0L526 550H442L92 0H179ZM456 236T472 242T507 248Q532 248 543 237T554 203Q554 167 478 96Q467 84 420 40V-1H631V61H532Q581 110 602
145T624 214Q624 260 594 288T518 316Q466 316 415 287L437 226Q456 236 472 242Z" />
<glyph unicode="&#xbe;" glyph-name="threequarters" horiz-adv-x="720" d="M132 358Q161 358 175 351T189 326Q189 294 145 294Q125 294 103 299T66 310L45 247Q62 238 92 232T146 226Q198 226 230 249T262 317Q262 341 247 360T213 389Q230 402 241 420T252
458Q252 503 224 526T147 550Q122 550 99 543T50 522L74 461Q116 482 148 482Q182 482 182 455Q182 420 130 420H107V358H132ZM239 0L586 550H502L152 0H239ZM418 117V63H564V0H631V63H680V123H631V309H551L418 117ZM564 213V123H501L564 213Z" />
<glyph unicode="&#xbf;" glyph-name="questiondown" horiz-adv-x="432" d="M246 483T262 467T278 428Q278 405 262 389T223 373Q200 373 184 389T168 428Q168 451 184 467T223 483Q246 483 262 467ZM30 -22T79 -59T202 -97Q243 -97 281 -88T362 -58L332 22Q268
-13 211 -13Q164 -13 143 5T121 51Q121 79 135 98T181 144Q209 168 227 188T257 239T270 313V329H178V313Q178 270 161 245T107 188Q81 166 66 150T41 108T30 48Q30 -22 79 -59Z" />
<glyph unicode="&#xc0;" glyph-name="Agrave" horiz-adv-x="535" d="M13 0H109L164 145H367L423 0H522L315 550H220L13 0ZM195 233L265 439L335 233H195ZM161 663L201 751L412 649L376 580L161 663Z" />
<glyph unicode="&#xc1;" glyph-name="Aacute" horiz-adv-x="535" d="M13 0H109L164 145H367L423 0H522L315 550H220L13 0ZM195 233L265 439L335 233H195ZM375 663L160 580L124 649L335 751L375 663Z" />
<glyph unicode="&#xc2;" glyph-name="Acircumflex" horiz-adv-x="535" d="M13 0H109L164 145H367L423 0H522L315 550H220L13 0ZM195 233L265 439L335 233H195ZM118 652L169 595L268 671L367 595L418 652L268 766L118 652Z" />
<glyph unicode="&#xc3;" glyph-name="Atilde" horiz-adv-x="535" d="M13 0H109L164 145H367L423 0H522L315 550H220L13 0ZM195 233L265 439L335 233H195ZM170 722T145 697T111 634L179 612Q188 633 195 642T218 651Q229 651 252 637Q272 626 289 620T324 613Q368
613 392 638T426 703L357 723Q356 720 351 709T338 691T319 684Q305 684 277 700Q254 711 239 716T210 722Q170 722 145 697Z" />
<glyph unicode="&#xc4;" glyph-name="Adieresis" horiz-adv-x="535" d="M13 0H109L164 145H367L423 0H522L315 550H220L13 0ZM195 233L265 439L335 233H195ZM169 613T155 627T140 663Q140 683 154 697T190 712Q210 712 224 698T239 663Q239 642 225 628T190 613Q169
613 155 627ZM326 613T312 627T297 663Q297 683 311 697T347 712Q367 712 381 698T396 663Q396 642 382 628T347 613Q326 613 312 627Z" />
<glyph unicode="&#xc5;" glyph-name="Aring" horiz-adv-x="535" d="M367 645T338 675T266 705Q224 705 195 675T165 603Q165 578 176 556T207 518L13 0H109L164 145H367L423 0H522L328 521Q346 534 356 556T367 603Q367 645 338 675ZM281 642T292 630T304 603Q304
586 293 574T266 562Q248 562 238 573T227 603Q227 619 238 630T266 642Q281 642 292 630ZM195 233L265 439L335 233H195Z" />
<glyph unicode="&#xc6;" glyph-name="AE" horiz-adv-x="757" d="M712 0V89H455V235H684V324H455V462H712V550H250L13 0H111L177 145H361V0H712ZM361 462V233H215L315 462H361Z" />
<glyph unicode="&#xc7;" glyph-name="Ccedilla" horiz-adv-x="542" d="M291 -142T267 -136L212 -121L192 -187L208 -191Q255 -208 300 -208Q350 -208 374 -184T398 -124Q398 -63 319 -42L328 -9Q409 -9 496 28L510 33L478 113L464 107Q394 81 345 81Q249 81 195
134T140 276Q140 329 163 373T229 442T331 468Q361 468 388 465T455 446L470 441L503 518L487 524Q413 555 333 555Q245 555 179 519T76 419T40 275Q40 208 66 150T140 52T256 -1L232 -86L288 -102Q312 -109 319 -115T326 -129Q326 -142 306 -142Q291 -142 267
-136Z" />
<glyph unicode="&#xc8;" glyph-name="Egrave" horiz-adv-x="467" d="M424 0V89H161V235H394V324H161V462H424V550H63V0H424ZM136 663L176 751L387 649L351 580L136 663Z" />
<glyph unicode="&#xc9;" glyph-name="Eacute" horiz-adv-x="467" d="M424 0V89H161V235H394V324H161V462H424V550H63V0H424ZM350 663L135 580L99 649L310 751L350 663Z" />
<glyph unicode="&#xca;" glyph-name="Ecircumflex" horiz-adv-x="467" d="M424 0V89H161V235H394V324H161V462H424V550H63V0H424ZM93 652L144 595L243 671L342 595L393 652L243 766L93 652Z" />
<glyph unicode="&#xcb;" glyph-name="Edieresis" horiz-adv-x="467" d="M424 0V89H161V235H394V324H161V462H424V550H63V0H424ZM144 613T130 627T115 663Q115 683 129 697T165 712Q185 712 199 698T214 663Q214 642 200 628T165 613Q144 613 130 627ZM301 613T287
627T272 663Q272 683 286 697T322 712Q342 712 356 698T371 663Q371 642 357 628T322 613Q301 613 287 627Z" />
<glyph unicode="&#xcc;" glyph-name="Igrave" horiz-adv-x="224" d="M63 0H161V550H63V0ZM5 653L45 741L256 639L220 570L5 653Z" />
<glyph unicode="&#xcd;" glyph-name="Iacute" horiz-adv-x="224" d="M63 0H161V550H63V0ZM475 653L260 570L224 639L435 741L475 653Z" />
<glyph unicode="&#xce;" glyph-name="Icircumflex" horiz-adv-x="224" d="M63 0H161V550H63V0ZM218 642L269 585L368 661L467 585L518 642L368 756L218 642Z" />
<glyph unicode="&#xcf;" glyph-name="Idieresis" horiz-adv-x="224" d="M63 0H161V550H63V0ZM269 603T255 617T240 653Q240 673 254 687T290 702Q310 702 324 688T339 653Q339 632 325 618T290 603Q269 603 255 617ZM426 603T412 617T397 653Q397 673 411 687T447
702Q467 702 481 688T496 653Q496 632 482 618T447 603Q426 603 412 617Z" />
<glyph unicode="&#xd0;" glyph-name="Eth" horiz-adv-x="625" d="M106 236V0H244Q291 0 323 2T387 11Q492 41 539 117T586 292Q586 357 560 415T467 511T292 550H106V325H9V236H106ZM388 462T437 416T486 279Q486 221 462 176Q432 121 382 105T268 89H205V236H325V325H205V462H294Q388
462 437 416Z" />
<glyph unicode="&#xd1;" glyph-name="Ntilde" horiz-adv-x="608" d="M63 0H161V409L426 0H545V550H446V142L180 550H63V0ZM220 722T195 697T161 634L229 612Q238 633 245 642T268 651Q279 651 302 637Q322 626 339 620T374 613Q418 613 442 638T476 703L407 723Q406
720 401 709T388 691T369 684Q355 684 327 700Q304 711 289 716T260 722Q220 722 195 697Z" />
<glyph unicode="&#xd2;" glyph-name="Ograve" horiz-adv-x="623" d="M236 557T174 522T76 422T40 275Q40 186 78 122T177 26T309 -7Q387 -7 449 29T547 131T583 280Q583 363 547 426T450 523T312 557Q236 557 174 522ZM351 466T391 446T457 383T483 275Q483 211
459 168T397 105T315 85Q266 85 226 109T163 177T140 281Q140 344 164 385T226 446T308 466Q351 466 391 446ZM205 663L245 751L456 649L420 580L205 663Z" />
<glyph unicode="&#xd3;" glyph-name="Oacute" horiz-adv-x="623" d="M236 557T174 522T76 422T40 275Q40 186 78 122T177 26T309 -7Q387 -7 449 29T547 131T583 280Q583 363 547 426T450 523T312 557Q236 557 174 522ZM351 466T391 446T457 383T483 275Q483 211
459 168T397 105T315 85Q266 85 226 109T163 177T140 281Q140 344 164 385T226 446T308 466Q351 466 391 446ZM419 663L204 580L168 649L379 751L419 663Z" />
<glyph unicode="&#xd4;" glyph-name="Ocircumflex" horiz-adv-x="623" d="M236 557T174 522T76 422T40 275Q40 186 78 122T177 26T309 -7Q387 -7 449 29T547 131T583 280Q583 363 547 426T450 523T312 557Q236 557 174 522ZM351 466T391 446T457 383T483 275Q483
211 459 168T397 105T315 85Q266 85 226 109T163 177T140 281Q140 344 164 385T226 446T308 466Q351 466 391 446ZM162 652L213 595L312 671L411 595L462 652L312 766L162 652Z" />
<glyph unicode="&#xd5;" glyph-name="Otilde" horiz-adv-x="623" d="M236 557T174 522T76 422T40 275Q40 186 78 122T177 26T309 -7Q387 -7 449 29T547 131T583 280Q583 363 547 426T450 523T312 557Q236 557 174 522ZM351 466T391 446T457 383T483 275Q483 211
459 168T397 105T315 85Q266 85 226 109T163 177T140 281Q140 344 164 385T226 446T308 466Q351 466 391 446ZM214 722T189 697T155 634L223 612Q232 633 239 642T262 651Q273 651 296 637Q316 626 333 620T368 613Q412 613 436 638T470 703L401 723Q400 720 395
709T382 691T363 684Q349 684 321 700Q298 711 283 716T254 722Q214 722 189 697Z" />
<glyph unicode="&#xd6;" glyph-name="Odieresis" horiz-adv-x="623" d="M236 557T174 522T76 422T40 275Q40 186 78 122T177 26T309 -7Q387 -7 449 29T547 131T583 280Q583 363 547 426T450 523T312 557Q236 557 174 522ZM351 466T391 446T457 383T483 275Q483
211 459 168T397 105T315 85Q266 85 226 109T163 177T140 281Q140 344 164 385T226 446T308 466Q351 466 391 446ZM213 613T199 627T184 663Q184 683 198 697T234 712Q254 712 268 698T283 663Q283 642 269 628T234 613Q213 613 199 627ZM370 613T356 627T341 663Q341
683 355 697T391 712Q411 712 425 698T440 663Q440 642 426 628T391 613Q370 613 356 627Z" />
<glyph unicode="&#xd7;" glyph-name="multiply" horiz-adv-x="446" d="M223 160L127 64L70 121L166 217L71 313L127 370L223 274L319 370L375 313L280 217L376 121L319 64L223 160Z" />
<glyph unicode="&#xd8;" glyph-name="Oslash" horiz-adv-x="623" d="M583 365T583 280Q583 197 548 132T450 30T309 -7Q264 -7 222 6T145 46L80 -16L12 56L79 120Q40 187 40 275Q40 358 76 422T174 521T312 557Q410 557 482 502L558 574L625 503L546 428Q583 365
583 280ZM140 233T156 193L411 434Q364 466 308 466Q264 466 226 447T164 386T140 281Q140 233 156 193ZM483 319T470 355L217 115Q259 85 315 85Q358 85 396 105T459 168T483 275Q483 319 470 355Z" />
<glyph unicode="&#xd9;" glyph-name="Ugrave" horiz-adv-x="562" d="M380 -9T429 26T492 105T506 199V550H408V204Q408 178 405 157Q395 121 363 102T280 82Q231 82 199 101T158 157Q153 180 153 204V550H56V199Q56 149 69 105T132 26T280 -9Q380 -9 429 26ZM173
663L213 751L424 649L388 580L173 663Z" />
<glyph unicode="&#xda;" glyph-name="Uacute" horiz-adv-x="562" d="M380 -9T429 26T492 105T506 199V550H408V204Q408 178 405 157Q395 121 363 102T280 82Q231 82 199 101T158 157Q153 180 153 204V550H56V199Q56 149 69 105T132 26T280 -9Q380 -9 429 26ZM387
663L172 580L136 649L347 751L387 663Z" />
<glyph unicode="&#xdb;" glyph-name="Ucircumflex" horiz-adv-x="562" d="M380 -9T429 26T492 105T506 199V550H408V204Q408 178 405 157Q395 121 363 102T280 82Q231 82 199 101T158 157Q153 180 153 204V550H56V199Q56 149 69 105T132 26T280 -9Q380 -9 429
26ZM130 652L181 595L280 671L379 595L430 652L280 766L130 652Z" />
<glyph unicode="&#xdc;" glyph-name="Udieresis" horiz-adv-x="562" d="M380 -9T429 26T492 105T506 199V550H408V204Q408 178 405 157Q395 121 363 102T280 82Q231 82 199 101T158 157Q153 180 153 204V550H56V199Q56 149 69 105T132 26T280 -9Q380 -9 429 26ZM181
613T167 627T152 663Q152 683 166 697T202 712Q222 712 236 698T251 663Q251 642 237 628T202 613Q181 613 167 627ZM338 613T324 627T309 663Q309 683 323 697T359 712Q379 712 393 698T408 663Q408 642 394 628T359 613Q338 613 324 627Z" />
<glyph unicode="&#xdd;" glyph-name="Yacute" horiz-adv-x="509" d="M201 249V0H299V249L505 550H395L255 337L116 550H7L201 249ZM362 663L147 580L111 649L322 751L362 663Z" />
<glyph unicode="&#xde;" glyph-name="Thorn" horiz-adv-x="526" d="M161 550H63V0H161V105H217Q320 105 368 117Q437 137 466 183T495 286Q495 334 466 376T368 437Q325 449 216 449H161V550ZM241 360Q294 360 323 357T373 335T394 276Q394 237 374 219T324 198T242
194H161V360H241Z" />
<glyph unicode="&#xdf;" glyph-name="germandbls" horiz-adv-x="528" d="M165 554T114 511T62 380V0H157V380Q157 430 182 447T232 465Q306 465 306 413Q306 400 295 390T260 364Q226 344 208 324T189 271Q189 238 206 218T247 188T310 166Q352 153 370 143T389
112Q389 92 374 83T320 73Q276 73 217 89L200 93L177 13L195 9Q265 -10 335 -10Q418 -10 453 26T488 108Q488 148 469 172T423 209T357 234Q324 245 311 252T297 271Q297 279 305 286T333 306Q368 328 389 351T410 410Q410 445 391 478T334 532T240 554Q165 554
114 511Z" />
<glyph unicode="&#xe0;" glyph-name="agrave" horiz-adv-x="408" d="M140 390T62 364L77 298Q130 318 175 318Q228 318 246 300T264 232L189 228Q112 224 71 193T29 105Q29 55 66 23T165 -9Q232 -9 277 27L288 0H364V236Q364 310 326 350T190 390Q140 390 62 364ZM263
82T250 76T223 66T189 63Q159 63 142 76T125 112Q125 158 200 162L268 167V85Q263 82 250 76ZM278 418L329 477L160 634L95 560L278 418Z" />
<glyph unicode="&#xe1;" glyph-name="aacute" horiz-adv-x="408" d="M140 390T62 364L77 298Q130 318 175 318Q228 318 246 300T264 232L189 228Q112 224 71 193T29 105Q29 55 66 23T165 -9Q232 -9 277 27L288 0H364V236Q364 310 326 350T190 390Q140 390 62 364ZM263
82T250 76T223 66T189 63Q159 63 142 76T125 112Q125 158 200 162L268 167V85Q263 82 250 76ZM122 418L305 560L240 634L71 477L122 418Z" />
<glyph unicode="&#xe2;" glyph-name="acircumflex" horiz-adv-x="408" d="M140 390T62 364L77 298Q130 318 175 318Q228 318 246 300T264 232L189 228Q112 224 71 193T29 105Q29 55 66 23T165 -9Q232 -9 277 27L288 0H364V236Q364 310 326 350T190 390Q140 390
62 364ZM263 82T250 76T223 66T189 63Q159 63 142 76T125 112Q125 158 200 162L268 167V85Q263 82 250 76ZM286 430L338 483L200 634L62 483L114 430L200 524L286 430Z" />
<glyph unicode="&#xe3;" glyph-name="atilde" horiz-adv-x="408" d="M140 390T62 364L77 298Q130 318 175 318Q228 318 246 300T264 232L189 228Q112 224 71 193T29 105Q29 55 66 23T165 -9Q232 -9 277 27L288 0H364V236Q364 310 326 350T190 390Q140 390 62 364ZM263
82T250 76T223 66T189 63Q159 63 142 76T125 112Q125 158 200 162L268 167V85Q263 82 250 76ZM100 551T73 525T39 460L112 437Q121 457 128 465T151 473Q162 473 185 459Q205 448 222 442T257 435Q302 435 330 462T362 525L290 549Q283 531 276 523T252 514Q242
514 228 520T211 528Q165 551 137 551Q100 551 73 525Z" />
<glyph unicode="&#xe4;" glyph-name="adieresis" horiz-adv-x="408" d="M140 390T62 364L77 298Q130 318 175 318Q228 318 246 300T264 232L189 228Q112 224 71 193T29 105Q29 55 66 23T165 -9Q232 -9 277 27L288 0H364V236Q364 310 326 350T190 390Q140 390 62
364ZM263 82T250 76T223 66T189 63Q159 63 142 76T125 112Q125 158 200 162L268 167V85Q263 82 250 76ZM99 445T85 459T70 495Q70 515 84 529T120 544Q140 544 154 530T169 495Q169 474 155 460T120 445Q99 445 85 459ZM256 445T242 459T227 495Q227 515 241 529T277
544Q297 544 311 530T326 495Q326 474 312 460T277 445Q256 445 242 459Z" />
<glyph unicode="&#xe5;" glyph-name="aring" horiz-adv-x="408" d="M140 390T62 364L77 298Q130 318 175 318Q228 318 246 300T264 232L189 228Q112 224 71 193T29 105Q29 55 66 23T165 -9Q232 -9 277 27L288 0H364V236Q364 310 326 350T190 390Q140 390 62 364ZM263
82T250 76T223 66T189 63Q159 63 142 76T125 112Q125 158 200 162L268 167V85Q263 82 250 76ZM300 567T272 596T200 625Q157 625 128 596T99 523Q99 481 128 451T200 420Q242 420 271 450T300 523Q300 567 272 596ZM216 563T227 551T238 523Q238 507 227 495T200
483Q183 483 172 495T161 523Q161 539 172 551T200 563Q216 563 227 551Z" />
<glyph unicode="&#xe6;" glyph-name="ae" horiz-adv-x="628" d="M374 390T321 347Q298 368 270 379T190 390Q140 390 62 364L77 298Q130 318 175 318Q228 318 246 300T264 232L189 228Q112 224 71 193T29 105Q29 55 66 23T165 -9Q237 -9 314 39Q360 -10 455 -10Q518
-10 582 13L565 78Q517 66 460 66Q405 66 379 85T348 153H599V190Q599 284 558 337T430 390Q374 390 321 347ZM467 315T486 291T506 220H350Q352 265 376 290T432 315Q467 315 486 291ZM269 85Q253 73 235 68T189 63Q159 63 142 76T125 112Q125 158 200 162L269
167V85Z" />
<glyph unicode="&#xe7;" glyph-name="ccedilla" horiz-adv-x="396" d="M128 247T157 281T244 315Q271 315 291 310T348 292L375 355Q369 358 345 368T291 384T228 390Q137 390 83 337T29 190Q29 113 68 61T178 -6L156 -86L211 -102Q235 -109 241 -115T248 -129Q248
-141 225 -141Q219 -141 209 -139T189 -136L135 -121L117 -187L131 -191Q181 -208 225 -208Q272 -208 296 -184T320 -124Q320 -64 243 -42L251 -10Q291 -7 319 2T375 27L348 89Q312 77 292 72T244 66Q190 66 159 100T128 190Q128 247 157 281Z" />
<glyph unicode="&#xe8;" glyph-name="egrave" horiz-adv-x="416" d="M160 390T120 366T54 296T29 190Q29 100 81 45T232 -10Q303 -10 368 13L351 78Q303 66 245 66Q190 66 160 85T126 153H387V190Q387 283 341 336T207 390Q160 390 120 366ZM246 315T269 291T292
220H128Q130 265 154 290T209 315Q246 315 269 291ZM285 418L336 477L167 634L102 560L285 418Z" />
<glyph unicode="&#xe9;" glyph-name="eacute" horiz-adv-x="416" d="M160 390T120 366T54 296T29 190Q29 100 81 45T232 -10Q303 -10 368 13L351 78Q303 66 245 66Q190 66 160 85T126 153H387V190Q387 283 341 336T207 390Q160 390 120 366ZM246 315T269 291T292
220H128Q130 265 154 290T209 315Q246 315 269 291ZM129 418L312 560L247 634L78 477L129 418Z" />
<glyph unicode="&#xea;" glyph-name="ecircumflex" horiz-adv-x="416" d="M160 390T120 366T54 296T29 190Q29 100 81 45T232 -10Q303 -10 368 13L351 78Q303 66 245 66Q190 66 160 85T126 153H387V190Q387 283 341 336T207 390Q160 390 120 366ZM246 315T269
291T292 220H128Q130 265 154 290T209 315Q246 315 269 291ZM293 430L345 483L207 634L69 483L121 430L207 524L293 430Z" />
<glyph unicode="&#xeb;" glyph-name="edieresis" horiz-adv-x="416" d="M160 390T120 366T54 296T29 190Q29 100 81 45T232 -10Q303 -10 368 13L351 78Q303 66 245 66Q190 66 160 85T126 153H387V190Q387 283 341 336T207 390Q160 390 120 366ZM246 315T269 291T292
220H128Q130 265 154 290T209 315Q246 315 269 291ZM106 445T92 459T77 495Q77 515 91 529T127 544Q147 544 161 530T176 495Q176 474 162 460T127 445Q106 445 92 459ZM263 445T249 459T234 495Q234 515 248 529T284 544Q304 544 318 530T333 495Q333 474 319
460T284 445Q263 445 249 459Z" />
<glyph unicode="&#xec;" glyph-name="igrave" horiz-adv-x="194" d="M49 0H145V384H49V0ZM431 418L482 477L313 634L248 560L431 418Z" />
<glyph unicode="&#xed;" glyph-name="iacute" horiz-adv-x="194" d="M49 0H145V384H49V0ZM275 418L458 560L393 634L224 477L275 418Z" />
<glyph unicode="&#xee;" glyph-name="icircumflex" horiz-adv-x="194" d="M49 0H145V384H49V0ZM439 430L491 483L353 634L215 483L267 430L353 524L439 430Z" />
<glyph unicode="&#xef;" glyph-name="idieresis" horiz-adv-x="194" d="M49 0H145V384H49V0ZM252 445T238 459T223 495Q223 515 237 529T273 544Q293 544 307 530T322 495Q322 474 308 460T273 445Q252 445 238 459ZM409 445T395 459T380 495Q380 515 394 529T430
544Q450 544 464 530T479 495Q479 474 465 460T430 445Q409 445 395 459Z" />
<glyph unicode="&#xf0;" glyph-name="eth" horiz-adv-x="448" d="M424 358T424 218Q424 148 397 97T324 18T225 -9Q134 -9 81 42T28 182Q28 241 53 283T122 346T218 367Q264 367 305 351Q295 391 271 422L186 388L161 448L218 471Q200 483 182 492T158 505L194
568Q198 566 229 550T297 504L383 539L407 478L348 454Q424 358 424 218ZM268 67T298 99T329 213Q329 243 325 272Q281 295 240 295Q189 295 157 269T125 182Q125 130 153 99T225 67Q268 67 298 99Z" />
<glyph unicode="&#xf1;" glyph-name="ntilde" horiz-adv-x="445" d="M47 384V0H142V287Q200 308 235 308Q274 308 289 284T304 230V0H399V218Q399 263 391 299T352 362T260 389Q195 389 127 356L115 384H47ZM129 551T102 525T68 460L141 437Q150 457 157 465T180
473Q191 473 214 459Q234 448 251 442T286 435Q331 435 359 462T391 525L319 549Q312 531 305 523T281 514Q271 514 257 520T240 528Q194 551 166 551Q129 551 102 525Z" />
<glyph unicode="&#xf2;" glyph-name="ograve" horiz-adv-x="455" d="M286 -9T331 16T400 87T425 191Q425 282 372 336T228 390Q138 390 84 337T30 190Q30 132 54 87T123 17T227 -9Q286 -9 331 16ZM269 315T297 283T326 190Q326 131 299 99T227 67Q185 67 157 99T129
190Q129 249 157 282T227 315Q269 315 297 283ZM306 418L357 477L188 634L123 560L306 418Z" />
<glyph unicode="&#xf3;" glyph-name="oacute" horiz-adv-x="455" d="M286 -9T331 16T400 87T425 191Q425 282 372 336T228 390Q138 390 84 337T30 190Q30 132 54 87T123 17T227 -9Q286 -9 331 16ZM269 315T297 283T326 190Q326 131 299 99T227 67Q185 67 157 99T129
190Q129 249 157 282T227 315Q269 315 297 283ZM150 418L333 560L268 634L99 477L150 418Z" />
<glyph unicode="&#xf4;" glyph-name="ocircumflex" horiz-adv-x="455" d="M286 -9T331 16T400 87T425 191Q425 282 372 336T228 390Q138 390 84 337T30 190Q30 132 54 87T123 17T227 -9Q286 -9 331 16ZM269 315T297 283T326 190Q326 131 299 99T227 67Q185 67
157 99T129 190Q129 249 157 282T227 315Q269 315 297 283ZM314 430L366 483L228 634L90 483L142 430L228 524L314 430Z" />
<glyph unicode="&#xf5;" glyph-name="otilde" horiz-adv-x="455" d="M286 -9T331 16T400 87T425 191Q425 282 372 336T228 390Q138 390 84 337T30 190Q30 132 54 87T123 17T227 -9Q286 -9 331 16ZM269 315T297 283T326 190Q326 131 299 99T227 67Q185 67 157 99T129
190Q129 249 157 282T227 315Q269 315 297 283ZM128 551T101 525T67 460L140 437Q149 457 156 465T179 473Q190 473 213 459Q233 448 250 442T285 435Q330 435 358 462T390 525L318 549Q311 531 304 523T280 514Q270 514 256 520T239 528Q193 551 165 551Q128 551
101 525Z" />
<glyph unicode="&#xf6;" glyph-name="odieresis" horiz-adv-x="455" d="M286 -9T331 16T400 87T425 191Q425 282 372 336T228 390Q138 390 84 337T30 190Q30 132 54 87T123 17T227 -9Q286 -9 331 16ZM269 315T297 283T326 190Q326 131 299 99T227 67Q185 67 157
99T129 190Q129 249 157 282T227 315Q269 315 297 283ZM127 445T113 459T98 495Q98 515 112 529T148 544Q168 544 182 530T197 495Q197 474 183 460T148 445Q127 445 113 459ZM284 445T270 459T255 495Q255 515 269 529T305 544Q325 544 339 530T354 495Q354 474
340 460T305 445Q284 445 270 459Z" />
<glyph unicode="&#xf7;" glyph-name="divide" horiz-adv-x="484" d="M221 315T205 331T189 370Q189 393 205 408T244 424Q267 424 282 409T298 370Q298 347 283 331T244 315Q221 315 205 331ZM434 187V267H50V187H434ZM221 30T205 46T189 85Q189 108 205 123T244
139Q267 139 282 124T298 85Q298 62 283 46T244 30Q221 30 205 46Z" />
<glyph unicode="&#xf8;" glyph-name="oslash" horiz-adv-x="455" d="M425 259T425 191Q425 132 401 87T331 17T227 -9Q165 -9 116 21L75 -21L22 29L64 72Q30 121 30 190Q30 283 84 336T228 390Q295 390 343 359L383 401L436 347L395 306Q425 259 425 191ZM129
167T134 145L282 297Q258 315 227 315Q186 315 158 282T129 190Q129 167 134 145ZM326 205T322 231L176 82Q199 67 227 67Q271 67 298 99T326 190Q326 205 322 231Z" />
<glyph unicode="&#xf9;" glyph-name="ugrave" horiz-adv-x="439" d="M390 -1V384H296V96Q256 73 212 73Q172 73 157 97T142 152V384H47V165Q47 92 73 42T187 -9Q221 -9 247 0T312 27L324 -1H390ZM297 418L348 477L179 634L114 560L297 418Z" />
<glyph unicode="&#xfa;" glyph-name="uacute" horiz-adv-x="439" d="M390 -1V384H296V96Q256 73 212 73Q172 73 157 97T142 152V384H47V165Q47 92 73 42T187 -9Q221 -9 247 0T312 27L324 -1H390ZM141 418L324 560L259 634L90 477L141 418Z" />
<glyph unicode="&#xfb;" glyph-name="ucircumflex" horiz-adv-x="439" d="M390 -1V384H296V96Q256 73 212 73Q172 73 157 97T142 152V384H47V165Q47 92 73 42T187 -9Q221 -9 247 0T312 27L324 -1H390ZM305 430L357 483L219 634L81 483L133 430L219 524L305 430Z" />
<glyph unicode="&#xfc;" glyph-name="udieresis" horiz-adv-x="439" d="M390 -1V384H296V96Q256 73 212 73Q172 73 157 97T142 152V384H47V165Q47 92 73 42T187 -9Q221 -9 247 0T312 27L324 -1H390ZM118 445T104 459T89 495Q89 515 103 529T139 544Q159 544 173
530T188 495Q188 474 174 460T139 445Q118 445 104 459ZM275 445T261 459T246 495Q246 515 260 529T296 544Q316 544 330 530T345 495Q345 474 331 460T296 445Q275 445 261 459Z" />
<glyph unicode="&#xfd;" glyph-name="yacute" horiz-adv-x="435" d="M172 -3L85 -206H192L427 384H327L224 89L109 384H0L172 -3ZM140 418L323 560L258 634L89 477L140 418Z" />
<glyph unicode="&#xfe;" glyph-name="thorn" horiz-adv-x="440" d="M36 -206H131V11Q154 1 172 -4T215 -9Q306 -9 357 45T409 191Q409 284 360 337T225 390Q192 390 172 386T131 370V550H36V-206ZM159 317T202 317Q251 317 281 289T312 197Q312 132 280 99T198
66Q161 66 132 85V298Q159 317 202 317Z" />
<glyph unicode="&#xff;" glyph-name="ydieresis" horiz-adv-x="435" d="M172 -3L85 -206H192L427 384H327L224 89L109 384H0L172 -3ZM117 445T103 459T88 495Q88 515 102 529T138 544Q158 544 172 530T187 495Q187 474 173 460T138 445Q117 445 103 459ZM274 445T260
459T245 495Q245 515 259 529T295 544Q315 544 329 530T344 495Q344 474 330 460T295 445Q274 445 260 459Z" />
<glyph unicode="&#x2013;" glyph-name="endash" horiz-adv-x="416" d="M366 180H30V247H366V180Z" />
<glyph unicode="&#x2014;" glyph-name="emdash" horiz-adv-x="626" d="M576 180H30V247H576V180Z" />
<glyph unicode="&#x2018;" glyph-name="quoteleft" horiz-adv-x="206" d="M119 469T128 456T138 426Q138 402 124 388T83 374Q57 374 44 390T30 432Q30 463 54 493T117 556L146 537Q117 501 103 475Q119 469 128 456Z" />
<glyph unicode="&#x2019;" glyph-name="quoteright" horiz-adv-x="206" d="M149 556T162 540T176 498Q176 467 152 437T89 374L60 393Q89 429 103 455Q87 461 78 474T68 504Q68 528 82 542T123 556Q149 556 162 540Z" />
<glyph unicode="&#x201a;" glyph-name="quotesinglbase" horiz-adv-x="600" d="M74 -9Q56 -4 45 11T33 46Q33 71 49 87T90 103Q116 103 131 84T147 30Q147 -8 124 -41T61 -114L29 -93L74 -9Z" />
<glyph unicode="&#x201c;" glyph-name="quotedblleft" horiz-adv-x="341" d="M119 469T128 456T138 426Q138 402 124 388T83 374Q57 374 44 390T30 432Q30 463 54 493T117 556L146 537Q117 501 103 475Q119 469 128 456ZM254 469T263 456T273 426Q273 402 259
388T218 374Q192 374 179 390T165 432Q165 463 189 493T252 556L281 537Q252 501 238 475Q254 469 263 456Z" />
<glyph unicode="&#x201d;" glyph-name="quotedblright" horiz-adv-x="341" d="M149 556T162 540T176 498Q176 467 152 437T89 374L60 393Q89 429 103 455Q87 461 78 474T68 504Q68 528 82 542T123 556Q149 556 162 540ZM284 556T297 540T311 498Q311 467 287 437T224
374L195 393Q224 429 238 455Q222 461 213 474T203 504Q203 528 217 542T258 556Q284 556 297 540Z" />
<glyph unicode="&#x201e;" glyph-name="quotedblbase" horiz-adv-x="341" d="M149 103T162 87T176 45Q176 14 152 -16T89 -79L60 -60Q89 -24 103 2Q87 8 78 21T68 51Q68 75 82 89T123 103Q149 103 162 87ZM284 103T297 87T311 45Q311 14 287 -16T224 -79L195 -60Q224
-24 238 2Q222 8 213 21T203 51Q203 75 217 89T258 103Q284 103 297 87Z" />
<glyph unicode="&#x2022;" glyph-name="bullet" horiz-adv-x="535" d="M304 135T334 153T382 201T400 268Q400 304 383 334T335 382T268 400Q232 400 202 382T153 334T135 268Q135 232 153 202T201 153T268 135Q304 135 334 153Z" />
<glyph unicode="&#x2039;" glyph-name="guilsinglleft" horiz-adv-x="251" d="M142 80H231L113 241L231 404H142L29 241L142 80Z" />
<glyph unicode="&#x203a;" glyph-name="guilsinglright" horiz-adv-x="251" d="M138 241L20 80H109L222 241L109 404H20L138 241Z" />
</font>
</defs>
</svg>
